* Dettagli Torrent   globale  | Commenti (0) 


- Bloodshot.2020.iTA-ENG.Bluray.1080p.DTS.x265-CYBER.mkv -


Download via torrent:
Categoria bittorrent BDRip
Descrizione


[size=36pt]Bloodshot[/size]




Genere: Azione, Fantascienza
Anno: 2020
Regia: Dave Wilson
Attori: Vin Diesel, Guy Pearce, Eiza González, Sam Heughan, Toby Kebbell, Talulah Riley, Jóhannes Haukur Jóhannesson, Siddharth Dhananjay, Lamorne Morris, Alex Hernandez
Paese: USA
Durata: 109 min
Distribuzione: Sony Pictures Italia / Warner Bros. Pictures Italia
[imdb]tt1634106[/imdb]



Ray Garrison, un soldato da poco ucciso sul campo, viene riportato in vita con capacità da supereroe da una società ipertecnologica. Con un esercito di nanotecnologie al posto del sangue, Ray diviene una forza inarrestabile in grado di guarire all'istante dalle ferite eventualmente riportate. Nel controllarne il corpo, la società ne manipola però anche la mente e i ricordi. Ray non sa più cosa sia reale o cosa no e il suo principale obiettivo è scoprirlo.


[spoiler][/spoiler]


[spoiler]

---[Information] [25/04/2020 23:09:47] x265 [info]: frame I: 2548, Avg QP:15.48 kb/s: 25155.44
---[Information] [25/04/2020 23:09:47] x265 [info]: frame P: 42002, Avg QP:18.03 kb/s: 10725.13
---[Information] [25/04/2020 23:09:47] x265 [info]: frame B: 112721, Avg QP:21.47 kb/s: 3555.06
---[Information] [25/04/2020 23:09:47] x265 [info]: Weighted P-Frames: Y:3.5% UV:2.6%
---[Information] [25/04/2020 23:09:47] x265 [info]: consecutive B-frames: 14.2% 8.4% 8.1% 48.6% 20.6%
---[Information] [25/04/2020 23:09:47] encoded 157271 frames in 9380.42s (16.77 fps), 5819.91 kb/s, Avg QP:20.45
General
Unique ID : 129527290269997862170521021847218652763 (0x61720C77405EA72D95A16BA31FD7865B)
Complete name : D:Bloodshot.2020Bloodshot.2020.iTA-ENG.Bluray.1080p.DTS.x265-CYBER.mkv
Format : Matroska
Format version : Version 2
File size : 7.24 GiB
Duration : 1 h 49 min
Overall bit rate : 9 482 kb/s
Encoded date : UTC 2020-05-21 10:58:23
Writing application : mkvmerge v45.0.0 ('Heaven in Pennies&#39 64-bit
Writing library : libebml v1.3.10 + libmatroska v1.5.2

Video
ID : 1
Format : HEVC
Format/Info : High Efficiency Video Coding
Format profile : [email protected]@Main
Codec ID : V_MPEGH/ISO/HEVC
Duration : 1 h 49 min
Bit rate : 5 821 kb/s
Width : 1 920 pixels
Height : 804 pixels
Display aspect ratio : 2.40:1
Frame rate mode : Constant
Frame rate : 23.976 (24000/1001) FPS
Color space : YUV
Chroma subsampling : 4:2:0
Bit depth : 8 bits
Bits/(Pixel*Frame) : 0.157
Stream size : 4.44 GiB (61%)
Writing library : x265 3.0_Au+4-dcbec33bfb0f:[Win][GCC][64][C|Y|B|E|R] 8bit+10bit+12bit
Encoding settings : cpuid=1111039 / frame-threads=3 / numa-pools=8 / wpp / no-pmode / no-pme / no-psnr / no-ssim / log-level=2 / input-csp=1 / input-res=1920x804 / interlace=0 / total-frames=157271 / level-idc=0 / high-tier=1 / uhd-bd=0 / ref=5 / no-allow-non-conformance / no-repeat-headers / annexb / no-aud / no-hrd / info / hash=0 / no-temporal-layers / no-open-gop / min-keyint=23 / keyint=250 / gop-lookahead=0 / bframes=4 / b-adapt=2 / b-pyramid / bframe-bias=0 / rc-lookahead=20 / lookahead-slices=5 / scenecut=40 / radl=0 / no-splice / no-intra-refresh / ctu=64 / min-cu-size=8 / no-rect / no-amp / max-tu-size=32 / tu-inter-depth=1 / tu-intra-depth=1 / limit-tu=0 / rdoq-level=0 / dynamic-rd=0.00 / no-ssim-rd / signhide / no-tskip / nr-intra=0 / nr-inter=0 / no-constrained-intra / strong-intra-smoothing / max-merge=2 / limit-refs=3 / no-limit-modes / me=1 / subme=2 / merange=57 / temporal-mvp / weightp / no-weightb / no-analyze-src-pics / deblock=-2:-2 / sao / no-sao-non-deblock / rd=3 / no-early-skip / rskip / no-fast-intra / no-tskip-fast / no-cu-lossless / no-b-intra / no-splitrd-skip / rdpenalty=0 / psy-rd=2.00 / psy-rdoq=0.00 / no-rd-refine / no-lossless / cbqpoffs=0 / crqpoffs=0 / rc=abr / bitrate=5822 / qcomp=0.60 / qpstep=4 / stats-write=0 / stats-read=2 / cplxblur=20.0 / qblur=0.5 / ipratio=1.40 / pbratio=1.30 / aq-mode=2 / aq-strength=1.00 / cutree / zone-count=0 / no-strict-cbr / qg-size=32 / no-rc-grain / qpmax=69 / qpmin=0 / no-const-vbv / sar=1 / overscan=0 / videoformat=5 / range=0 / colorprim=2 / transfer=2 / colormatrix=2 / chromaloc=0 / display-window=0 / max-cll=0,0 / min-luma=0 / max-luma=255 / log2-max-poc-lsb=8 / vui-timing-info / vui-hrd-info / slices=1 / no-opt-qp-pps / no-opt-ref-list-length-pps / no-multi-pass-opt-rps / scenecut-bias=0.05 / no-opt-cu-delta-qp / no-aq-motion / no-hdr / no-hdr-opt / no-dhdr10-opt / no-idr-recovery-sei / analysis-reuse-level=5 / scale-factor=0 / refine-intra=0 / refine-inter=0 / refine-mv=0 / refine-ctu-distortion=0 / no-limit-sao / ctu-info=0 / no-lowpass-dct / refine-analysis-type=0 / copy-pic=1 / max-ausize-factor=1.0 / no-dynamic-refine / no-single-sei / no-hevc-aq / qp-adaptation-range=1.00
Language : English
Default : Yes
Forced : No

Audio #1
ID : 2
Format : DTS
Format/Info : Digital Theater Systems
Codec ID : A_DTS
Duration : 1 h 49 min
Bit rate mode : Constant
Bit rate : 1 509 kb/s
Channel(s) : 6 channels
Channel layout : C L R Ls Rs LFE
Sampling rate : 48.0 kHz
Frame rate : 93.750 FPS (512 SPF)
Bit depth : 16 bits
Compression mode : Lossy
Stream size : 1.15 GiB (16%)
Language : Italian
Default : Yes
Forced : No

Audio #2
ID : 3
Format : AC-3
Format/Info : Audio Coding 3
Commercial name : Dolby Digital
Codec ID : A_AC3
Duration : 1 h 49 min
Bit rate mode : Constant
Bit rate : 640 kb/s
Channel(s) : 6 channels
Channel layout : L R C LFE Ls Rs
Sampling rate : 48.0 kHz
Frame rate : 31.250 FPS (1536 SPF)
Compression mode : Lossy
Stream size : 500 MiB (7%)
Language : Italian
Service kind : Complete Main
Default : No
Forced : No

Audio #3
ID : 4
Format : DTS
Format/Info : Digital Theater Systems
Codec ID : A_DTS
Duration : 1 h 49 min
Bit rate mode : Constant
Bit rate : 1 509 kb/s
Channel(s) : 6 channels
Channel layout : C L R Ls Rs LFE
Sampling rate : 48.0 kHz
Frame rate : 93.750 FPS (512 SPF)
Bit depth : 16 bits
Compression mode : Lossy
Stream size : 1.15 GiB (16%)
Language : English
Default : No
Forced : No

Text #1
ID : 5
Format : UTF-8
Codec ID : S_TEXT/UTF8
Codec ID/Info : UTF-8 Plain Text
Duration : 1 h 33 min
Bit rate : 0 b/s
Count of elements : 10
Stream size : 239 Bytes (0%)
Title : FORCED
Language : Italian
Default : Yes
Forced : No

Text #2
ID : 6
Format : UTF-8
Codec ID : S_TEXT/UTF8
Codec ID/Info : UTF-8 Plain Text
Duration : 1 h 48 min
Bit rate : 40 b/s
Count of elements : 1004
Stream size : 32.0 KiB (0%)
Title : REGOLARI
Language : Italian
Default : No
Forced : No

Text #3
ID : 7
Format : UTF-8
Codec ID : S_TEXT/UTF8
Codec ID/Info : UTF-8 Plain Text
Duration : 1 h 43 min
Bit rate : 50 b/s
Count of elements : 1159
Stream size : 38.5 KiB (0%)
Title : NON UDENTI
Language : English
Default : No
Forced : No

Menu
00:00:00.000 : en:Chapter 01
00:07:06.384 : en:Chapter 02
00:13:56.210 : en:Chapter 03
00:20:36.861 : en:Chapter 04
00:25:05.546 : en:Chapter 05
00:32:11.179 : en:Chapter 06
00:41:41.499 : en:Chapter 07
00:46:39.380 : en:Chapter 08
00:53:35.629 : en:Chapter 09
01:02:28.495 : en:Chapter 10
01:08:59.344 : en:Chapter 11
01:12:42.525 : en:Chapter 12
01:19:15.918 : en:Chapter 13
01:26:49.996 : en:Chapter 14
01:31:07.379 : en:Chapter 15
01:38:31.531 : en:Chapter 16
01:44:11.245 : en:Chapter 17[/spoiler]
Info: Per scaricare devi usare un client come uTorrent o Transmission
AnnounceURL
udp://tracker.coppersurfer.tk:6969/announce
Hash 9bccd741fab2899416fe1fa46887394f3388e82b
Peers seeds: 0 , leech: 0
Size 7.24 GB
Completato 0x
Aggiunto 22.05.20 - 01:05:47
Uploader Exportando
Votazione (Voti: 0)


Condividi questo bittorrent:


html/blog:


bbcode/forum:




Aggiungi Commento