* Dettagli Torrent   globale  | Commenti (0) 


- Il.Mio.Piccolo.Dinosauro.2017.iTALiAN.1080p.DDP5.1.WEB.x264-DENiED.mkv -


Download via torrent:
Categoria bittorrent BDRip
Descrizione


[size=36pt]Il Mio Piccolo Dinosauro[/size]




Titolo originale    My Pet Dinosaur
Lingua originale    Inglese
Paese di produzione    Australia
Anno    2017
Durata    98 min
Genere    avventura
Regia    Matt Drummond
Sceneggiatura    Matt Drummond



Un ragazzo di nome Jake Emory fa amicizia con un dinosauro, frutto di un esperimento andato storto. Mentre il giovane trova sempre più difficile mantenere nascosto il suo nuovo animaletto che continua a crescere ogni giorno di più, un perfido militare si mette sulle tracce della creatura per eliminarla.


[spoiler][/spoiler]


[spoiler]Complete name               : Il.Mio.Piccolo.Dinosauro.2017.iTALiAN.1080p.DDP5.1.WEB.x264-DENiED.mkv
Format                      : Matroska
Format version              : Version 4
File size                   : 4.41 GiB
Duration                    : 1 h 32 min
Overall bit rate mode       : Constant
Overall bit rate            : 6 801 kb/s
Encoded date                : UTC 2020-05-16 19:10:06
Writing application         : mkvmerge v45.0.0 ('Heaven in Pennies&#39 64-bit
Writing library             : libebml v1.3.10 + libmatroska v1.5.2

Video
ID                          : 1
Format                      : AVC
Format/Info                 : Advanced Video Codec
Format profile              : [email protected]
Format settings             : CABAC / 4 Ref Frames
Format settings, CABAC      : Yes
Format settings, Reference  : 4 frames
Codec ID                    : V_MPEG4/ISO/AVC
Duration                    : 1 h 32 min
Bit rate mode               : Constant
Bit rate                    : 6 159 kb/s
Nominal bit rate            : 10 000 kb/s
Width                       : 1 920 pixels
Height                      : 800 pixels
Display aspect ratio        : 2.40:1
Frame rate mode             : Constant
Frame rate                  : 25.000 FPS
Color space                 : YUV
Chroma subsampling          : 4:2:0
Bit depth                   : 8 bits
Scan type                   : Progressive
Bits/(Pixel*Frame)          : 0.160
Stream size                 : 4.00 GiB (91%)
Default                     : Yes
Forced                      : No
Color range                 : Limited
Color primaries             : BT.709
Transfer characteristics    : BT.709
Matrix coefficients         : BT.709

Audio
ID                          : 2
Format                      : E-AC-3
Format/Info                 : Enhanced AC-3
Commercial name             : Dolby Digital Plus
Codec ID                    : A_EAC3
Duration                    : 1 h 32 min
Bit rate mode               : Constant
Bit rate                    : 640 kb/s
Channel(s)                  : 6 channels
Channel layout              : L R C LFE Ls Rs
Sampling rate               : 48.0 kHz
Frame rate                  : 31.250 FPS (1536 SPF)
Compression mode            : Lossy
Stream size                 : 425 MiB (9%)
Title                       : Italian
Language                    : Italian
Service kind                : Complete Main
Default                     : No
Forced                      : No[/spoiler]
Info: Per scaricare devi usare un client come uTorrent o Transmission
AnnounceURL
udp://tracker.coppersurfer.tk:6969/announce
Hash 2f42c74cb71512291936932f351e2d5997c1f32d
Peers seeds: 0 , leech: 0
Size 4.41 GB
Completato 0x
Aggiunto 17.05.20 - 01:05:54
Uploader Exportando
Votazione (Voti: 0)


Condividi questo bittorrent:


html/blog:


bbcode/forum:




Aggiungi Commento