* Dettagli Torrent   globale  | Commenti (2) 


- Shin Godzilla (2016).1080p.H264.ita.eng.jpn.Ac3.sub.spa.eng-MIRCrew -


Download via torrent:
Categoria bittorrent BDRip
Descrizione
Shin Godzilla (2016).1080p.H264.ita.eng.jpn.Ac3.sub.spa.eng-MIRCrew







NO FOUND ONLY ORIGINAL RELEASE


My release is always in double track audio italian and Original audio
for select it use VLC or dvd player home
not use wmp

Shin Godzilla (2016)

Quality MIRCrew on HD 1080p da 3,2 gb










Titolo originale: Shin Gojira
Lingua originale giapponese, inglese, tedesco
Paese di produzione Giappone
Anno 2016
Durata 119 minuti
Rapporto 2,35: 1
Genere azione, avventura, orrore, drammatico, fantascienza
Regia Hideaki Anno, Shinji Higuchi
Sceneggiatura Hideaki Anno
Casa di produzione Toho Company, Cine Bazar
Distribuzione (Italia) Minerva Pictures
Effetti speciali Shinji Higuchi, Atsuki Sato
Musiche Shir? Sagisu



  Hiroki Hasegawa: Rando Yaguchi
  Satomi Ishihara: Kayoko Ann Patterson
  Yutaka Takenouchi: Hideki Akasaka



Mentre la guardia costiera giapponese investiga su uno yacht abbandonato nella Baia di Tokyo, qualcosa nell'acqua attacca la loro nave. Poco dopo, l'Aqua-Line Baia di Tokyo viene misteriosamente inondata e crolla. Dopo aver visto un video virale che mostra una gigantesca creatura che si muoveva in quella zona, il Vice Capo Segretario del Gabinetto del Giappone Rando Yaguchi si convince che l'incidente sia stato causato da un essere vivente.................



An unknown accident occurs in Tokyo Bay's Aqua Line, which causes an emergency cabinet to assemble. All of the sudden, a giant creature immediately appears, destroying town after town with its landing reaching the capital. This mysterious giant monster is named "Godzilla".

 





General

Complete name                            : Shin Godzilla (2016).1080p.H264.ita.jpn.eng.sub.eng.MIRCrewShin Godzilla (2016).1080p.H264.ita.jpn.eng.sub.eng-MIRCrew.mkv
Format                                   : Matroska
Format version                           : Version 2
File size                                : 3.19 GiB
Duration                                 : 1h 59mn
Overall bit rate                         : 3 813 Kbps
Movie name                               : MIRCrew by robbyrs
Encoded date                             : UTC 2017-08-16 08:39:58
Writing application                      : mkvmerge v5.8.0 ('No Sleep / Pillow&#39 built on Sep  2 2012 15:37:04
Writing library                          : Lavf54.63.100
COPYRIGHT                                : robbyrs
DATE                                     : 2017

Video
ID                                       : 1
Format                                   : AVC
Format/Info                              : Advanced Video Codec
Format profile                           : [email protected]
Format settings, CABAC                   : Yes
Format settings, ReFrames                : 2 frames
Codec ID                                 : V_MPEG4/ISO/AVC
Duration                                 : 1h 59mn
Bit rate                                 : 3 300 Kbps
Width                                    : 1 920 pixels
Height                                   : 800 pixels
Display aspect ratio                     : 2.40:1
Frame rate mode                          : Variable
Frame rate                               : 23.976 fps
Color space                              : YUV
Chroma subsampling                       : 4:2:0
Bit depth                                : 8 bits
Scan type                                : Progressive
Bits/(Pixel*Frame)                       : 0.090
Stream size                              : 2.65 GiB (83%)
Title                                    : MIRCrew
Writing library                          : x264 core 130 r2273
Encoding settings                        : cabac=1 / ref=2 / deblock=1:0:0 / analyse=0x1:0x131 / me=hex / subme=7 / psy=1 / psy_rd=1.00:0.00 / mixed_ref=0 / me_range=16 / chroma_me=1 / trellis=1 / 8x8dct=0 / cqm=0 / deadzone=21,11 / fast_pskip=1 / chroma_qp_offset=-2 / threads=3 / lookahead_threads=1 / sliced_threads=0 / nr=0 / decimate=1 / interlaced=0 / bluray_compat=0 / constrained_intra=0 / bframes=3 / b_pyramid=0 / b_adapt=1 / b_bias=0 / direct=3 / weightb=1 / open_gop=0 / weightp=2 / keyint=230 / keyint_min=23 / scenecut=40 / intra_refresh=0 / rc_lookahead=40 / rc=2pass / mbtree=1 / bitrate=3300 / ratetol=1.0 / qcomp=0.60 / qpmin=10 / qpmax=69 / qpstep=4 / cplxblur=20.0 / qblur=0.5 / vbv_maxrate=20000 / vbv_bufsize=20000 / nal_hrd=none / ip_ratio=1.40 / aq=1:1.00
Default                                  : Yes
Forced                                   : No
HANDLER_NAME                             : VideoHandler

Audio #1
ID                                       : 2
Format                                   : AC-3
Format/Info                              : Audio Coding 3
Mode extension                           : CM (complete main)
Codec ID                                 : A_AC3
Duration                                 : 1h 59mn
Bit rate mode                            : Constant
Bit rate                                 : 192 Kbps
Channel(s)                               : 2 channels
Channel positions                        : Front: L R
Sampling rate                            : 48.0 KHz
Bit depth                                : 16 bits
Compression mode                         : Lossy
Delay relative to video                  : -5ms
Stream size                              : 165 MiB (5%)
Title                                    : Ita Ac3 5.1
Language                                 : Italian
Default                                  : Yes
Forced                                   : No

Audio #2
ID                                       : 3
Format                                   : AC-3
Format/Info                              : Audio Coding 3
Mode extension                           : CM (complete main)
Codec ID                                 : A_AC3
Duration                                 : 1h 59mn
Bit rate mode                            : Constant
Bit rate                                 : 192 Kbps
Channel(s)                               : 2 channels
Channel positions                        : Front: L R
Sampling rate                            : 48.0 KHz
Bit depth                                : 16 bits
Compression mode                         : Lossy
Delay relative to video                  : -5ms
Stream size                              : 165 MiB (5%)
Title                                    : jpn
Default                                  : No
Forced                                   : No
HANDLER_NAME                             : SoundHandler

Audio #3
ID                                       : 4
Format                                   : AC-3
Format/Info                              : Audio Coding 3
Mode extension                           : CM (complete main)
Codec ID                                 : A_AC3
Duration                                 : 1h 59mn
Bit rate mode                            : Constant
Bit rate                                 : 192 Kbps
Channel(s)                               : 2 channels
Channel positions                        : Front: L R
Sampling rate                            : 48.0 KHz
Bit depth                                : 16 bits
Compression mode                         : Lossy
Delay relative to video                  : -5ms
Stream size                              : 165 MiB (5%)
Title                                    : Eng Ac3
Default                                  : No
Forced                                   : No





Info: Per scaricare devi usare un client come uTorrent o Transmission
AnnounceURL
udp://tracker.coppersurfer.tk:6969/announce
Hash ddc833ae43253855f7848c4c6707e02628ad52e6
Peers seeds: 13 , leech: 3
Size 3.19 GB
Completato 607x
Aggiunto 27.09.19 - 17:09:40
Uploader   robbyrs
Votazione (Voti: 2)


Condividi questo bittorrent:


html/blog:


bbcode/forum:




Aggiungi Commento
Ultimi commenti
avatar   milanica2milanica2   
Aggiungo che per il resto il file è perfetto. La traccia audio giapponese non ha problemi di sincronia.
23/05 22.36
avatar   milanica2milanica2   
La traccia audio italiana va gradualmente fuori sincrono. All'inizio c'è sincronia, ma dopo la metà l'audio va fastidiosamente in ritardo rispetto al video.
23/05 22.31
Tutti commenti (2)